The Conjuring 2013 R6 WEBRiP XviD-Acesn8s

seeders: 692
leechers: 16
Added on August 3, 2013 by Acesn8sin Movies
Torrent verified. Downloaded 18,373 times.



The Conjuring 2013 R6 WEBRiP XviD-Acesn8s (Size: 705.05 MB)
 The Conjuring 2013 R6 Webrip XviD Acesan8s.avi705.05 MB
 Torrent downloaded from extratorrent.com.txt339 bytes

Description


The.Conjuring.2013.R6.WEBRiP.XviD Acesan8s

Format : AVI
Format/Info : Audio Video Interleave
File size : 705 MiB
Duration : 1h 47mn
Overall bit rate : 919 Kbps
Writing application : VirtualDubMod 1.5.10.2 (build 2540/release)
Writing library : VirtualDubMod build 2540/release

Video
ID : 0
Format : MPEG-4 Visual
Format profile : Advanced Simple@L5
Format settings, BVOP : 2
Format settings, QPel : No
Format settings, GMC : No warppoints
Format settings, Matrix : Default (H.263)
Muxing mode : Packed bitstream
Codec ID : XVID
Codec ID/Hint : XviD
Duration : 1h 47mn
Bit rate : 781 Kbps
Width : 640 pixels
Height : 288 pixels
Display aspect ratio : 2.222
Frame rate : 23.976 fps
Color space : YUV
Chroma subsampling : 4:2:0
Bit depth : 8 bits
Scan type : Progressive
Compression mode : Lossy
Bits/(Pixel*Frame) : 0.177
Stream size : 600 MiB (85%)
Writing library : XviD 64

Audio
ID : 1
Format : MPEG Audio
Format version : Version 1
Format profile : Layer 3
Mode : Joint stereo
Mode extension : MS Stereo
Codec ID : 55
Codec ID/Hint : MP3
Duration : 1h 47mn
Bit rate mode : Constant
Bit rate : 128 Kbps
Channel(s) : 2 channels
Sampling rate : 44.1 KHz
Compression mode : Lossy
Stream size : 98.2 MiB (14%)
Alignment : Split accross interleaves
Interleave, duration : 42 ms (1.00 video frame)
Interleave, preload duration : 500 ms

Screens:






Trailer


https://www.youtube.com/watch?v=k10ETZ41q5o

Related Torrents

torrent name size seed leech

Sharing Widget


Download torrent
705.05 MB
seeders:692
leechers:16
The Conjuring 2013 R6 WEBRiP XviD-Acesn8s

Trailer


Screenshots


The Conjuring 2013 R6 WEBRiP XviD-Acesn8s screenshot
The Conjuring 2013 R6 WEBRiP XviD-Acesn8s screenshot
The Conjuring 2013 R6 WEBRiP XviD-Acesn8s screenshot
The Conjuring 2013 R6 WEBRiP XviD-Acesn8s screenshot

All Comments

Apoklios • 31 May 2014, 16:57
odlican film, super je video
johnny1985 • 18 May 2014, 03:53
thanks, love this movie.
Gulkan • 9 May 2014, 10:23
thanks
TelBren910 • 13 April 2014, 19:15
Error downloading
dilankasil • 4 April 2014, 03:12
Damnn!!
wasa good one!!!