The Conjuring 2013 R6 WEBRiP XviD-Acesn8s

seeders: 2963
leechers: 121
Added on Aug 3, 2013 by Acesn8s54630 in Movies > Highres Movies
Torrent verified. Downloaded 16,889 times.

The Conjuring 2013 R6 WEBRiP XviD-Acesn8s (Size: 705.05 MB)
  The Conjuring 2013 R6 Webrip XviD Acesan8s.avi 705.05 MB
  Torrent Downloaded From ExtraTorrent.com.txt 339 bytes

Description

image
The.Conjuring.2013.R6.WEBRiP.XviD Acesan8s

Format : AVI
Format/Info : Audio Video Interleave
File size : 705 MiB
Duration : 1h 47mn
Overall bit rate : 919 Kbps
Writing application : VirtualDubMod 1.5.10.2 (build 2540/release)
Writing library : VirtualDubMod build 2540/release

Video
ID : 0
Format : MPEG-4 Visual
Format profile : Advanced Simple@L5
Format settings, BVOP : 2
Format settings, QPel : No
Format settings, GMC : No warppoints
Format settings, Matrix : Default (H.263)
Muxing mode : Packed bitstream
Codec ID : XVID
Codec ID/Hint : XviD
Duration : 1h 47mn
Bit rate : 781 Kbps
Width : 640 pixels
Height : 288 pixels
Display aspect ratio : 2.222
Frame rate : 23.976 fps
Color space : YUV
Chroma subsampling : 4:2:0
Bit depth : 8 bits
Scan type : Progressive
Compression mode : Lossy
Bits/(Pixel*Frame) : 0.177
Stream size : 600 MiB (85%)
Writing library : XviD 64

Audio
ID : 1
Format : MPEG Audio
Format version : Version 1
Format profile : Layer 3
Mode : Joint stereo
Mode extension : MS Stereo
Codec ID : 55
Codec ID/Hint : MP3
Duration : 1h 47mn
Bit rate mode : Constant
Bit rate : 128 Kbps
Channel(s) : 2 channels
Sampling rate : 44.1 KHz
Compression mode : Lossy
Stream size : 98.2 MiB (14%)
Alignment : Split accross interleaves
Interleave, duration : 42 ms (1.00 video frame)
Interleave, preload duration : 500 ms

Screens:

image
image
image
image

Trailer


https://www.youtube.com/watch?v=k10ETZ41q5o

Related Torrents

torrent name size files age seed leech

Sharing Widget


Download torrent
705.05 MB
seeders:2963
leechers:121
The Conjuring 2013 R6 WEBRiP XviD-Acesn8s

Trackers

tracker name Status checked seeders leechers downloads
udp://tracker.openbittorrent.com:80/announce
active 23 Nov 2013 2894 121 10
udp://tracker.publicbt.com:80/announce
active 23 Nov 2013 2963 111 10
udp://tracker.istole.it:80/announce
active 07 Nov 2013 5113 138 10
udp://fr33domtracker.h33t.com:3310/announce
deleted 12 Oct 2013 - - -
http://anisaishuu.de:2710/announce
pending 23 Nov 2013 1089 89 16889
http://explodie.org:6969/announce
pending 23 Nov 2013 1030 86 5815
udp://explodie.org:6969/announce
pending 23 Nov 2013 1030 86 5815
http://bt2.careland.com.cn:6969/announce
pending 12 Oct 2013 0 0 0
udp://anisaishuu.de:2710/announce
pending 12 Oct 2013 0 0 0
udp://bt2.careland.com.cn:6969/announce
pending 12 Oct 2013 0 0 0

Torrent hash: 19733F06522B282E3B041C2868669572EF740559

Uploader Comments

1
anonymous • 03 Aug 2013, 03:05
Or even hard coded Chinese subtitles?
62
Acesn8s54630 • 03 Aug 2013, 03:24
yes mates has harcoded chinese subs but if i would have cropped them the vid would b unwatchable, has studio english audio though, don't know y chinese have 2 crucify everything :(
the screens r on the main page.

Top Comments

66
remlap4881 • 03 Aug 2013, 13:39  
torrent downloaded
audio: 7video: 7
I ain' afraid uh no SUBS!lol
26
created61931 • 05 Aug 2013, 13:09
OK, if this was a couple weeks from being on dvd, i would understand the complaints about quality, but this movie is brand new, still in theaters! PLUS this is the best copy out right now.... so stfu. Thx uploader! Wish ALL movies could be released onto DVD after 2 weeks in theaters!

All Comments

Comment as a guest or

audio
7/10
video
7/10
please, leave only comments related to that torrent
0
idi04255 • 20 November 2013, 12:26  
audio: 7video: 7
1
HammockRider887 • 19 November 2013, 01:28  
torrent downloaded
 
Good Av quality but the hardcoded chinese subs do take you out of the movie a bit. Still, thanks for the effort.
0
sayeedbaly15 • 17 November 2013, 05:58  
torrent downloaded
 
thanks its good
0
crosstheloser564 • 15 November 2013, 17:46  
audio: 7video: 6
Fast dwnlod
0
asinineRep.296 • 12 November 2013, 19:46  
torrent downloaded
 
audio: 10video: 8
awesome quality and AWESOME movie... in my opinion.. the audio was a little low though, and when i turn it up it gets a bad sound when banging is happening, etc. but if you got a nice sound system im sure that wouldnt matter
0
anonymous • 31 October 2013, 01:40  
can mp4's be played in blue ray dvd players once ripped ?
Show More

User Opinions

al_rosiemae815, geekkunal444, princehindu427, swrt75276, Sheena80251, stricnin184, gilbis127, bmoney95, Roury77, basilakos22 ... And 2302 more
rayron3570, linerider691491, sassy20031454, calocalderon1022, ToxicSoldier1009, mika49195, Moleman177, frnklry1155, maach099, snipr88814 ... And 203 more